Skip to main content

Jonathan Segel Live at Pappy And Harriet's Pioneertown Palace on 2008-09-13




01. Video (soundcheck)
02. Angels
03. Mirror Colored Thing
04. Can't Help It
05. Greedy
06. merch banter
07. Gravity - Little Blue Fish - Gravity
08. Scars


Collection JonathanSegel
Band/Artist Jonathan Segel
Venue Pappy And Harriet's Pioneertown Palace
Location Pioneertown CA

Source Neumann KM140's (shock-mounted ORTF pair ~8' from right side PA speaker ~7' high, clamped to beam support) > Beyer MV100 > Sony PCM-D50 > WAV @24bit/48KHz
Lineage WAV > Audacity 1.2.6 (convert to 16-bit/44.1KHz, tracking in 1/75 second increments & triangle dither to 16-bit) > AIFF > xACT 1.64 > FLAC level 8
Taped by TAS aka morst
Transferred by TAS aka morst

Notes

Jonathan Segel
Saturday, September 13, 2008
Pioneertown, CA, USA
Pappy & Harriet's Pioneertown Palace- indoor stage

4th Annual Cracker Camper Van Beethoven Family Reunion Campout

Individual timings for Gravity - Little Blue Fish - Gravity
Approximately 5:45 - 6:15 - 2:29

Personnel:
Jonathan Segel - Guitar, Vocal
Victor Krummenacher - Bass, Vocal
John Hanes - Drums
Alison Faith Levy - Keyboard, Tambourine, Vocal

SHNTOOL:
length expanded size cdr WAVE problems fmt ratio filename
3:46.37 39953468 B --- -- ---xx jsegel2008-09-13t01.flac
7:35.59 80400812 B --- -- ---xx jsegel2008-09-13t02.flac
4:00.53 42460700 B --- -- ---xx jsegel2008-09-13t03.flac
4:31.42 47903228 B --- -- ---xx jsegel2008-09-13t04.flac
3:30.08 37062860 B --- -- ---xx jsegel2008-09-13t05.flac
1:22.39 14556572 B --- -- ---xx jsegel2008-09-13t06.flac
14:29.01 153293996 B --- -- ---xx jsegel2008-09-13t07.flac
8:40.71 91895036 B --- -- ---xx jsegel2008-09-13t08.flac
47:57.10 507526672 B 0.5375 (8 files)

-=-=-=-=-=-=-=-=-=-=-=-=-=-=-=-=-=-=-=-=-=-=-=-=-
Soundscape Preservation Society Founded 1991
http://www.iamtypingwithonefinger.com/SPS.html
-=-=-=-=-=-=-=-=-=-=-=-=-=-=-=-=-=-=-=-=-=-=-=-=-

Reviews

Reviewer: mick dillingham - - September 29, 2008
Subject: as ever jes delivers
another great set from jes....love the new songs , love the small but classy band....another instant download
PEOPLE ALSO FOUND
Jonathan Segel
by Jonathan Segel
412
2
1
( 1 reviews )
Source: Neumann KM140's (shock-mounted ORTF pair ~8' from right side PA speaker ~7' high, clamped to beam support) > Beyer MV100 > Sony PCM-D50 (pass through) > Zoom H2 > WAV @24bit/48KHz
Jonathan Segel
by Jonathan Segel
982
2
4
( 4 reviews )
Source: Neumann KM140's > Beyer MV100 > Sony PCM-D50 > WAVs @48kHz/24bit + Yamaha SBD > Edirol R09 > WAVs @48kHz/24bit
Source: SBD + AUD mix
Jonathan Segel
by Jonathan Segel
1,888
1
1
( 1 reviews )
Source: SBD + Audience Matrix
Source: SBD + AUD mix @24/48
Jonathan Segel
by Jonathan Segel
3,500
2
1
( 1 reviews )
Source: Neumann KM140's (shock-mounted ORTF pair ~8' from right side PA speaker ~7' high, clamped to beam support) > Beyer MV100 > Sony PCM-D50 > WAV @24bit/48KHz
Jonathan Segel
by Jonathan Segel
12,318
3
1
( 1 reviews )
Source: Neumann KM140's ORTF shock-mounted on stand (~10') with DPA windscreens > Beyer MV100 > Sony PCM-M1 > DAT @48KHz
( 5 reviews )
Source: SBD + AUD mix
Community Video
by saamot
62
1
0
Reason For Leaving
by Reason For Leaving
3,080
0
2
( 2 reviews )
Source: Neumann KM140's > Beyer MV100 > Sony SBM-1 (Oade mod) > Sony TCD-D100 DAT @48KHz